11~~~~~ 202204202210et ~~~~~D



11~~~~~ 202204202210et ~~~~~D



D





11~~~~~ 202204202210et ~~~~~D



*

Override with
Foreground Color
Type Here ..


Color Guide
complements of computerhope.com


Override with
Background Color
Type Here ..


Color Guide
complements of computerhope.com

Touch This Silver
To Customize
Your Colors



Real Playback Speed Equation

REAL SPEED EQUATION ..
studio_speed =
commercial_speed * 0.90 * 0.91875 * 0.972

where 0.90 = 39690 Hz / 44100 Hz
and 0.91875 = 44100 Hz / 48000 Hz
and 0.972 = lowering the pitch
by 50 cents
( joint with tempo )
which is one half of one semitone
of the even tempered scale
( just is .. rounded up to exactly 97.2 percent
playback change as the Real Antidote .
Do NOT use Any more significant digits
such as was tested .. 0.971531941154 ..
will leave the end rate as too slow )

.. As Of Today 2022/05/17


We The People .. need to file ..
a Multi Trillion Dollar
law suit against Media Distributors
in the United States and the World
for TOTALLY UNNECESSARILY causing
Massive ( Subtley Unnoticed ? )
Noise Pollution
in the form of Mild ?
Global Sonic Torment
affecting Everyone on the planet
ADVERSELY WITHIN our Hearing ..
Mental Health and Physical Wellness
BY THE INDUSTRY NOT playing AUDIO
Everywhere
at the PROPER Playback Rate
that In All HONESTY and PURITY
SHOULD HAVE MATCHED
that of a LIVE REALTIME ..
Performance rate ( Calibrated )
SINCE THE DAWN
OF AUDIO RECORDING TECHNOLOGY
Instead the audio has ALWAYS
been played at a FASTER
than CORRECT True Reality rate
Now take all that lawsuit money we win ..
AND FUND people to
PROPERLY FIX THIS SPEEDING PROBLEM
E V E R Y W H E R E
O N   T H I S   G L O B E

like i am fixing it
here on PureDel.com


friend=

Download Currently Disabled
( PureDel cookie not found )




You rolled .. 6


Keep on Rollin ..


Website in Live Mode



Thank You
( Saying " Thank You "
Is Like A Free Gift
from a Good Friend )




~~~~~ 202204202210et ~~~~~

Membership



eGift Card



The Best seat at the concert is right here ..
your EQ flat balanced Headphones ( puredel adjusted ) ..
and pleasure maximized tracks ..
found Right Here on PureDel.com


Any IP Address ..




D

*


Singer Songwriter Musician
Paul McCartney Of Beatles
Admits Music " They Sped It Up "
Listen about 4 minutes
into this video excerpt ( 4:10 ~ 4:13 )


Correct music restores the soul
instead of increased playback rate TAXING it ..
which is how the music media industry
TAMPERED with it

Listen To Restored Music
here on PureDel.com

Please scroll down ..
There is more ..
.. a lot more ..



~ Call PureDel.com .. ~


~ Email Del .. purrsys@gmail.com ~



Return To ..
PureDel.com Home Page






Office Use Only = ../_______l/

Give to Del NN Get from Del
at the Store Site for PureDel.com
( PayPal empowered )


comp[ 1.05777 ]





~ Controls ~



Determining Rate ..



.. pr ..

con%

c[ ]
vc[ ]


[ audio ]

c-%--v%-

a [ .9689999968 ]
v [ .94186799689 ]



.. [ .9689999968 ] ..



.. no user cookie[ ] ..



.. ^[ 2 ] .. ( 2 ) ..



cp[ 12 ]



fp[ 12 ]



2[ 0.9689999968 x 0.972 = 0.9418679968 ]



1[ 0.9418679968 x 0.972 = 0.9154956928 ]



j.a ~~ 0.9154956928 ~~



j.a ~~ 0.9154956928 ~~


Playback Rate without decimal point
.. OR ..
For each semiflat ( 50 cents or .972 )
use negative sign [ - ]
followed by one zero [ 0 ] for each 50 cents slower
[ 100 cents flat = one semitone flat = one half step down ]
use negative 11 [ -11 ]
followed by zeros
to also override default

Rate ..



Start hours ..



Start minutes ..



Start seconds ..







Start track prority .. otherwise leave blank ..



Increment seconds ..




0 = 100%
-1[000...] = 100% x [ 000 ... each zero is ( x 97.2% ) ]
-2[000...]= ~97% x [ 000 ... no zeros = ~97% ]
default = ~97% x 0000 where
~97% = .9689999986
0 = 100%
[ ] = optional
n = .n = n% where n < 100%




AlJarreau_LoveSongs_CompleteAlbum_90r_ex-3.wav WAVE
TRACK 01 AUDIO
TITLE 01-Track-01
INDEX 01 00:00:00
TRACK 02 AUDIO
TITLE 02-Track-02
INDEX 01 04:12:51
TRACK 03 AUDIO
TITLE 03-Track-03
INDEX 01 08:47:65
TRACK 04 AUDIO
TITLE 04-Track-04
INDEX 01 13:58:52
TRACK 05 AUDIO
TITLE 05-Track-05
INDEX 01 18:48:60
TRACK 06 AUDIO
TITLE 06-Track-06
INDEX 01 25:21:44
TRACK 07 AUDIO
TITLE 07-Track-07
INDEX 01 31:36:39
TRACK 08 AUDIO
TITLE 08-Track-08
INDEX 01 36:34:52
TRACK 09 AUDIO
TITLE 09-Track-09
INDEX 01 41:36:03
TRACK 10 AUDIO
TITLE 10-Track-10
INDEX 01 47:03:05
TRACK 11 AUDIO
TITLE 11-Track-11
INDEX 01 50:00:20
TRACK 12 AUDIO
TITLE 12-Track-12
INDEX 01 53:53:36
TRACK 13 AUDIO
TITLE 13-Track-13
INDEX 01 59:01:15
TRACK 14 AUDIO
TITLE 14-Track-14
INDEX 01 65:11:49